lijecenjebiljem.info
Главная

Скачать мультфильм

Скачать мультфильм

Подарки черного воронаПроект "Гора самоцветов" (неизданное).
Год выпуска: 2012.
Страна: Россия .
Выпущено: "Анимационная студия Пилот Александра Татарского", НП Фонд поддержки анимационного кино "Пилот".
Жанр: Детский, семейный, анимационный.
Продолжительность: 00:14:10.
Режиссер: Степан Бирюков.
Описание:
По логике "Гора самоцветов" должна состоять из сказок народов России, но иногда в ней попадаются исключения. Украинские, например, сказки или даже корейские. В конце концов, эти народы ведь тоже в России живут. "Подарки ворона" - исключение самое смелое. Заставка этого фильма рассказывает не о России, а о Грузии, и - вообще невероятное дело - герои говорят по-грузински, русский же текст наложен войсовером.
Сюжет таков: жила-была очень бедная грузинская семья. Однажды муж посеял пшеницу и народился у них великолепный урожай. Бедняк пошел его собирать, и увидел огромное количество воронов, клевавших колосья. Несчастный хотел птиц прогнать, но тут главный ворон говорит: "Гости это мои, не обидишь их, я тебя трижды отблагодарю". Грузин, мил человек, и не обидел, а попировал вместе с птичками. Когда же нужда прижала, пошел к главному ворону за обещанной благодарностью. Тот слово сдержал и подарил ему чудо-меленку, которая любые яства в любом количестве готовит. Возрадовалось семейство, впрочем, раньше времени: завистливый богатый князь меленку отобрал, и бедняку снова пришлось к ворону на поклон идти. Так продолжалось, пока, хитроумный ворон не придумал, как восстановить справедливость: князь был наказан, а бедняк зажил припеваючи.
Свою грузинскую сказку Бирюков сделал в пластилине и наполнил очаровательными подробностями. Тут и великолепная грузинская керамика, и изображение застолья, и танцы (особенно мило танцую, собственно, вороны), и, конечно, потрясающие грузинские песни. (Мария Терещенко)
Дополнительная информация:
Фильм снят при государственной финансовой поддержке министерства культуры Российской Федерации!
• Официальный сайт проекта "Гора самоцветов" Александра Татарского.
• Официальный сайт "Анимационной студии Пилот Александра Татарского".
• Обзор Марии Терещенко новых фильмов проекта на Кино-Театр.ру.
Релиз HeDgEhOt.....
Качество видео:...WEBRip
Формат:.................AVI
Видео: 720x400 (1.80:1), 25 fps, XviD build 50 1280 kbps avg, 0.18 bit/pixel
Аудио: 48 kHz, AC3 Dolby Digital, 2/0 (L,R) ch, 192 kbps

Отчет Media Info

Общее
Полное имя : Podarki.chjornogo.vorona.2012.XviD.WEBRip.by.HeDgEhOt.avi
Формат : AVI
Формат/Информация : Audio Video Interleave
Размер файла : 150 Мбайт
Продолжительность : 14 м.
Общий поток : 1483 Кбит/сек
Название фильма : Подарки ворона (2012)
Правообладатель : HeDgEhOt®
Видео
Идентификатор : 0
Формат : MPEG-4 Visual
Профиль формата : Advanced Simple@L5
Параметр BVOP формата : 1
Параметр QPel формата : Нет
Параметр GMC формата : Без точки перехода
Параметр матрицы формата : Default (MPEG)
Идентификатор кодека : XVID
Идентификатор кодека/Подсказка : XviD
Продолжительность : 14 м.
Битрейт : 1281 Кбит/сек
Ширина : 720 пикселей
Высота : 400 пикселей
Соотношение сторон : 16:9
Частота кадров : 25,000 кадров/сек
Цветовое пространство : YUV
Субдискретизация насыщенности : 4:2:0
Битовая глубина : 8 бит
Тип развёртки : Прогрессивная
Метод сжатия : С потерями
Бит/(ПикселиКадры) : 0.178
Размер потока : 130 Мбайт (86%)
Библиотека кодирования : XviD 1.2.1 (UTC 2008-12-04)
Аудио
Идентификатор : 1
Формат : AC-3
Формат/Информация : Audio Coding 3
Расширение режима : CM (complete main)
Параметр Endianness формата : Big
Идентификатор кодека : 2000
Продолжительность : 14 м.
Вид битрейта : Постоянный
Битрейт : 192 Кбит/сек
Каналы : 2 канала
Расположение каналов : Front: L R
Частота : 48,0 КГц
Битовая глубина : 16 бит
Метод сжатия : С потерями
Размер потока : 19,5 Мбайт (13%)
Выравнивание : Соединение по промежуткам
Продолжительность промежутка : 40 мс. (1,00 видеокадр)
Время предзагрузки промежутка : 512 мс.
Язык : Русский

Скриншоты

Альтернативный хост

Мультфильмы из проекта "Гора самоцветов" (неизданное):
Петушок и кошечка (Сергей Меринов) [2012, Детский, семейный, анимационный, WEBRip] из цикла "Гора самоцветов"
Сказ хотанского ковра (Наталья Березовая) [2012, Детский, семейный, анимационный, WEBRip] из цикла "Гора самоцветов"
По колено ноги в золоте, по локоть руки в серебре (Сергей Гордеев) [2013, Детский, семейный, анимационный, WEBRip] из цикла "Гора самоцветов"
Подарки черного ворона (Степан Бирюков) [2012, Детский, семейный, анимационный, WEBRip] из цикла "Гора самоцветов"
Колобок (Марина Карпова) [2012, Детский, семейный, анимационный, WEBRip] из цикла "Гора самоцветов"
Download

Сайт не распространяет и не хранит электронные версии произведений, а лишь предоставляет доступ к создаваемому пользователями каталогу ссылок на торрент-файлы, которые содержат только списки хеш-сумм

Степан бирюков подарки черного ворона 720
Скачать мультфильм
Скачать мультфильм
Скачать мультфильм
Скачать мультфильм
Скачать мультфильм
Скачать мультфильм
Скачать мультфильм
Скачать мультфильм
Скачать мультфильм
Скачать мультфильм
Скачать мультфильм
Скачать мультфильм
Скачать мультфильм
Скачать мультфильм
Скачать мультфильм
Теги:

Сшить одеяло из верблюжьей шерсти  Кузнечик кузя вязание крючком схема и описание  Айфон 4s в подарок тверь  Как сделать взгляд светлее  Прически с подобранными кудрями  Как связать крючком пояс с фото схемой  Схемы по экономической теории книга  Какой подарок акихито внуку  Манекен для причесок натуральные волосы цена  Как делать открытки в виде сердца  Шаблоны рамки для открытки с  Бисер для цветов с деревьями с схема  Как сделать изображение чётким в paint  Электронные схемы зарядки батареи  Для хранения пакетов на кухне своими руками  Уничтожитель бумаги bu a208  

Карта сайта